Register

Welcome to the RDI-Board Community.

If this is your first visit, be sure to check out the FAQ by clicking the link above. You may have to register before you can post: click the register link above to proceed.

Donate Now Goal amount for this month: 100 EUR, Received: 100 EUR (100%)
Donate to support this site...

Results 1 to 2 of 2
  1. #1
    Anonymous
    Guest
    RDI - Board Default Avatar

    Default Un player sau orice alta idee

    Am luat de pe EON muzica in format mp3.

    Problema e ca unele melodii sunt toate in una, adica un CD intr-un mp3.

    Fisieru asta mare este insotit de un m3u si de un fisier .cue care arata cam asa:

    PERFORMER "VA"
    TITLE "Dance Paradise 4 Mixed By Vicious Pete"
    FILE "01-va-dance_paradise_4_mixed_by_vicious_pete-2004-usf.mp3" MP3
    TRACK 01 AUDIO
    TITLE " intro"
    PERFORMER "vicious pete "
    INDEX 01 00:00:00
    TRACK 02 AUDIO
    TITLE " maria"
    PERFORMER "scooter "
    INDEX 01 01:07:60
    TRACK 03 AUDIO
    TITLE " there is a trip"
    PERFORMER "delta "
    INDEX 01 03:11:29
    TRACK 04 AUDIO
    TITLE " all over the world"
    PERFORMER "jan wayne "
    INDEX 01 04:32:16
    TRACK 05 AUDIO
    TITLE " believe"
    PERFORMER "covergirl "
    INDEX 01 05:41:11
    TRACK 06 AUDIO
    TITLE " take on me"
    PERFORMER "beat factory "
    INDEX 01 08:30:40
    TRACK 07 AUDIO
    TITLE " be with you"
    PERFORMER "tara lowe "
    INDEX 01 10:51:52
    TRACK 08 AUDIO
    TITLE " man on the moon"
    PERFORMER "gabry ponte "
    INDEX 01 13:14:23
    TRACK 09 AUDIO
    TITLE " promised land"
    PERFORMER "nella mente "
    INDEX 01 15:23:27
    TRACK 10 AUDIO
    TITLE " winds of change"
    PERFORMER "illusion "
    INDEX 01 16:58:62
    TRACK 11 AUDIO
    TITLE " why"
    PERFORMER "bounce "
    INDEX 01 18:41:09
    TRACK 12 AUDIO
    TITLE " in the way"
    PERFORMER "session one "
    INDEX 01 20:17:15
    TRACK 13 AUDIO
    TITLE " don't cry tonight (remix)"
    PERFORMER "scotty "
    INDEX 01 22:17:54
    TRACK 14 AUDIO
    TITLE " spaceman came traveling"
    PERFORMER "seven "
    INDEX 01 23:57:32
    TRACK 15 AUDIO
    TITLE " ragazza"
    PERFORMER "d jmc "
    INDEX 01 26:27:08
    TRACK 16 AUDIO
    TITLE " poison (remix)"
    PERFORMER "groove coverage "
    INDEX 01 28:11:42
    TRACK 17 AUDIO
    TITLE " whos sorry now"
    PERFORMER "surf giants "
    INDEX 01 30:06:50
    TRACK 18 AUDIO
    TITLE " run to you"
    PERFORMER "novaspace "
    INDEX 01 31:45:38
    TRACK 19 AUDIO
    TITLE " confused (cj stone remix)"
    PERFORMER "sylver "
    INDEX 01 33:40:59
    TRACK 20 AUDIO
    TITLE " boys (renegade masters remix)"
    PERFORMER "sabrina "
    INDEX 01 36:59:15
    TRACK 21 AUDIO
    TITLE " you"
    PERFORMER "sarina paris "
    INDEX 01 38:30:59
    TRACK 22 AUDIO
    TITLE " the night"
    PERFORMER "scooter "
    INDEX 01 40:55:28
    TRACK 23 AUDIO
    TITLE " love is a soldier"
    PERFORMER "jan wayne "
    INDEX 01 42:48:14
    TRACK 24 AUDIO
    TITLE " paradise (remix)"
    PERFORMER "novaspace "
    INDEX 01 44:33:58
    TRACK 25 AUDIO
    TITLE " touch "
    PERFORMER "acara "
    INDEX 01 45:41:57
    TRACK 26 AUDIO
    TITLE " 4 your love"
    PERFORMER "bad boyz "
    INDEX 01 47:49:06
    TRACK 27 AUDIO
    TITLE " lets fly"
    PERFORMER "olga p "
    INDEX 01 48:41:42
    TRACK 28 AUDIO
    TITLE " brighter day"
    PERFORMER "treesh "
    INDEX 01 50:02:74
    TRACK 29 AUDIO
    TITLE " can't touch this"
    PERFORMER "beam vs cyrus "
    INDEX 01 51:14:24
    TRACK 30 AUDIO
    TITLE " alone "
    PERFORMER "playhouse "
    INDEX 01 52:37:29
    TRACK 31 AUDIO
    TITLE " in the club"
    PERFORMER "salvo sapienza "
    INDEX 01 54:12:46
    TRACK 32 AUDIO
    TITLE " mr vain (remix)"
    PERFORMER "culture beat "
    INDEX 01 56:00:25
    TRACK 33 AUDIO
    TITLE " rainbowland"
    PERFORMER "adrima "
    INDEX 01 57:23:02
    TRACK 34 AUDIO
    TITLE " vincero"
    PERFORMER "andreas schoenberg "
    INDEX 01 60:56:18
    TRACK 35 AUDIO
    TITLE " not gonna get us"
    PERFORMER "tatu "
    INDEX 01 62:43:19
    TRACK 36 AUDIO
    TITLE " listen up"
    PERFORMER "hampenberg vs benny b "
    INDEX 01 64:53:60
    TRACK 37 AUDIO
    TITLE " live forever"
    PERFORMER "sasha de vries "
    INDEX 01 65:58:22
    TRACK 38 AUDIO
    TITLE " traveling"
    PERFORMER "orion too "
    INDEX 01 66:47:08
    TRACK 39 AUDIO
    TITLE " here in my heart"
    PERFORMER "silverblue "
    INDEX 01 68:47:17
    TRACK 40 AUDIO
    TITLE " flying"
    PERFORMER "deep blue feat christine "
    INDEX 01 69:55:13
    TRACK 41 AUDIO
    TITLE "Track41"
    PERFORMER "Unknown Artist"
    INDEX 01 71:58:37


    Dupa cate imi dau eu seama fisieru asta spune playerului (nu stiu care o fi ala) unde sa sara pentru melodia 22 sa zicem.

    Stie cineva un player care sa interpreteze acel fisier sau vreun soft de scriere care sa imparta in track-uri fisieru asta mare?


    O alta intrebare e cum pot crea asemenea fisiere (adica cue files).

  2. #2
    Junior Member Teacher
    RDI - Board Default Avatar

    Join Date
    Apr 2003
    Location
    Antarctica
    Posts
    191
    Posts Thanks / Likes

    Default

    mp3 il poti taia cu nero

 

 

Thread Information

Users Browsing this Thread

There are currently 1 users browsing this thread. (0 members and 1 guests)

Similar Threads

  1. Idee
    By Unuseroarecare in forum DREAMBOX
    Replies: 31
    Last Post: 23rd July 2006, 03:55
  2. Replies: 17
    Last Post: 19th June 2006, 07:03
  3. o idee?urgent
    By str-evo in forum RDI - Satelit
    Replies: 2
    Last Post: 28th December 2005, 12:42

Posting Permissions

  • You may not post new threads
  • You may not post replies
  • You may not post attachments
  • You may not edit your posts
  •  
Back to Top