Register

Welcome to the RDI-Board Community.

If this is your first visit, be sure to check out the FAQ by clicking the link above. You may have to register before you can post: click the register link above to proceed.


Donate Now Goal amount for this month: 100 EUR, Received: 100 EUR (100%)
Donate to support this site...

Page 1 of 2 12 LastLast
Results 1 to 15 of 23
  1. #1
    Senior Member Expert
    Join Date
    Aug 2005
    Posts
    3,261
    Posts Thanks / Likes

    Default Planeta HD Bulgaria 39 E





  2. #2
    Junior Member Teacher
    RDI - Board Default Avatar

    Join Date
    Sep 2005
    Location
    Bucuresti
    Posts
    244
    Posts Thanks / Likes

    Default

    Suuuuper veste! Multumesc Didi!

  3. #3
    Senior Member Expert
    Join Date
    Jul 2005
    Location
    babardia
    Posts
    1,219
    Posts Thanks / Likes

    Default

    sunt upscalari sau genuine hd?
    intreb ptr ca n`am avut timp sa scanez ..
    buc. | parabola 1.5 | invacom 0.3 dB | dm500 | dm800 | 62E -> 30W

  4. #4
    Junior Member Friend
    RDI - Board Default Avatar

    Join Date
    Nov 2005
    Posts
    41
    Posts Thanks / Likes

    Default Daca analizam .transport stream avem asa:

    General
    ID : 5
    Complete name : D:\Planeta HD__1276238354.ts
    Format : MPEG-TS
    File size : 14.7 MiB
    Duration : 12s 779ms
    Overall bit rate : 7 988 Kbps

    Video
    ID : 523 (0x20B)
    Menu ID : 206 (0xCE)
    Format : AVC
    Format/Info : Advanced Video Codec
    Format version : Version 2
    Format profile : [email protected]
    Format settings, CABAC : Yes
    Format settings, ReFrames : 4 frames
    Duration : 13s 20ms
    Bit rate : 7 464 Kbps
    Maximum bit rate : 8 218 Kbps
    Width : 1 280 pixels
    Height : 1 080 pixels
    Display aspect ratio : 16:9
    Frame rate : 25.000 fps
    Color space : YUV
    Chroma subsampling : 4:2:0
    Bit depth : 8 bits
    Scan type : Interlaced
    Scan order : Top Field First
    Bits/(Pixel*Frame) : 0.216
    Stream size : 11.6 MiB (79%)
    Color primaries : BT.709-5, BT.1361, IEC 61966-2-4, SMPTE RP177
    Transfer characteristics : BT.709-5, BT.1361
    Matrix coefficients : BT.709-5, BT.1361, IEC 61966-2-4 709, SMPTE RP177

    Audio
    ID : 524 (0x20C)
    Menu ID : 206 (0xCE)
    Format : MPEG Audio
    Format version : Version 1
    Format profile : Layer 2
    Duration : 12s 624ms
    Bit rate mode : Constant
    Bit rate : 128 Kbps
    Maximum bit rate : 144 Kbps
    Channel(s) : 2 channels
    Sampling rate : 48.0 KHz
    Video delay : -604ms
    Stream size : 197 KiB (1%)
    Language : English

  5. #5
    Senior Member Expert
    Join Date
    Jul 2005
    Location
    babardia
    Posts
    1,219
    Posts Thanks / Likes

    Default

    Quote Originally Posted by licapavel View Post
    General
    ID : 5
    Complete name : D:\Planeta HD__1276238354.ts
    Format : MPEG-TS
    File size : 14.7 MiB
    Duration : 12s 779ms
    Overall bit rate : 7 988 Kbps

    Video
    ID : 523 (0x20B)
    Menu ID : 206 (0xCE)
    Format : AVC
    Format/Info : Advanced Video Codec
    Format version : Version 2
    Format profile : [email protected]
    Format settings, CABAC : Yes
    Format settings, ReFrames : 4 frames
    Duration : 13s 20ms
    Bit rate : 7 464 Kbps
    Maximum bit rate : 8 218 Kbps
    Width : 1 280 pixels
    Height : 1 080 pixels
    Display aspect ratio : 16:9
    Frame rate : 25.000 fps
    Color space : YUV
    Chroma subsampling : 4:2:0
    Bit depth : 8 bits
    Scan type : Interlaced
    Scan order : Top Field First
    Bits/(Pixel*Frame) : 0.216
    Stream size : 11.6 MiB (79%)
    Color primaries : BT.709-5, BT.1361, IEC 61966-2-4, SMPTE RP177
    Transfer characteristics : BT.709-5, BT.1361
    Matrix coefficients : BT.709-5, BT.1361, IEC 61966-2-4 709, SMPTE RP177

    Audio
    ID : 524 (0x20C)
    Menu ID : 206 (0xCE)
    Format : MPEG Audio
    Format version : Version 1
    Format profile : Layer 2
    Duration : 12s 624ms
    Bit rate mode : Constant
    Bit rate : 128 Kbps
    Maximum bit rate : 144 Kbps
    Channel(s) : 2 channels
    Sampling rate : 48.0 KHz
    Video delay : -604ms
    Stream size : 197 KiB (1%)
    Language : English
    mersi frumos de info dar e irelevant daca mie mi`ai raspuns
    un upscale il simti cu ochiul nu cu stream analyser
    buc. | parabola 1.5 | invacom 0.3 dB | dm500 | dm800 | 62E -> 30W

  6. #6
    Silver Member Expert
    Join Date
    Jan 1970
    Location
    Banat.Ro
    Posts
    2,755
    Posts Thanks / Likes

    Default

    Nu cred sa-l lase prea mult free, asa ca enjoy it.La mine rezolutia apare 1280x1080.
    Video: Vu+Uno (HDD 80Gb) /offset 1.2 H-H/42E<=>30W;
    Optibox Gekko Cable HD
    Audio: Harman Kardon HK680+Monitor Audio B2+WD Elements Play (2Tb)

  7. #7
    Junior Member Teacher
    RDI - Board Default Avatar

    Join Date
    Jan 2007
    Location
    c:\Outside of Bucharest
    Posts
    227
    Posts Thanks / Likes

    Wink Merge

    Clipurile par a fi upscalate sau postprocesate cu filtre la greu.
    Fete tinere, frumoase si tarentoate. Blgarski.
    Restul par a fi "Computer Graphics"

  8. #8
    Junior Member Teacher
    RDI - Board Default Avatar

    Join Date
    Aug 2005
    Location
    Slobozia
    Posts
    272
    Posts Thanks / Likes

    Default

    Planeta HD s-a codat!
    Cipy

  9. #9
    Junior Member Junior
    RDI - Board Default Avatar

    Join Date
    Jun 2010
    Posts
    1
    Posts Thanks / Likes

    Default

    Thanks you for the post.

  10. #10
    Time to update ? Mentor
    Join Date
    Oct 2003
    Location
    Global Village
    Posts
    602
    Posts Thanks / Likes

    Default

    Mai emite Planeta HD pe aceasta frecventa? Mie cel putin la scanare nu imi gaseste nici un program pe aceasta frecventa, nici codat, nici FTA ... In momentul de fata mai exista aceasta transmisie pe frecventa amintita mai sus ?

  11. #11
    Member Mentor
    RDI - Board Default Avatar

    Join Date
    Jun 2008
    Location
    Valenii de Munte
    Posts
    603
    Posts Thanks / Likes

    Default

    Ai reciver HD sau nu?

  12. #12
    Junior Member Teacher
    RDI - Board Default Avatar

    Join Date
    Jan 2007
    Posts
    257
    Posts Thanks / Likes

    Default

    merge foarte bine

  13. #13
    Time to update ? Mentor
    Join Date
    Oct 2003
    Location
    Global Village
    Posts
    602
    Posts Thanks / Likes

    Default

    Quote Originally Posted by ia_ro View Post
    Ai reciver HD sau nu?
    SS HD2 , merge foarte bine, receptionez semnal corect (atat nivel, cat si calitate a semnalului ) de la zeci de programe HD MPEG4 (DVB-S2) , doar pe transporderul amintit nu imi gaseste semnal (si aici includ toate programele tv de pe respectivul transporder, care nu apar deloc la scanare), poate antena mea de 80 cm e cam mica, desi canalele de la Dolce (cele HD) apar la scanare ( aceste canale Dolce avand nivel semnal 92% si calitate 98%)...

  14. #14
    Member Mentor
    RDI - Board Default Avatar

    Join Date
    Jul 2008
    Posts
    935
    Posts Thanks / Likes

    Default

    Nu e pozitionata corect antena,daca e montata de baietii de la Dolce e clar-au fost interesati doar de tp-urile proprii

  15. #15
    Time to update ? Mentor
    Join Date
    Oct 2003
    Location
    Global Village
    Posts
    602
    Posts Thanks / Likes

    Default

    Quote Originally Posted by dammi View Post
    Nu e pozitionata corect antena,daca e montata de baietii de la Dolce e clar-au fost interesati doar de tp-urile proprii
    Multumesc pentru raspuns, dar nu cred ca aici e problema, fiindca antena e pozitionata de mine ( e antena de la Digi Tv, la care sunt abonat, dar am facut-o mobila... fiind de fapt montata pe un HH, cu ajutorul caruia receptionez perfect semnal de la Planeta TV SD (care e pe acelasi satelit cu Planeta HD), precum si semnal corect de la sateliti cuprinsi intre 4 grade West si la 42 grade Est (mai mult nu m-a interesat). Probabil e vreo vreo problema de la SS2 sau vreo setare pe acolo prin DVB Dream, Progdvb, DVB Viewer etc... Daca e cineva care receptioneza semnal pe acest transporder cu ajutorul unui SS HD2, as fi interesat ce solutie a gasit.

 

 

Thread Information

Users Browsing this Thread

There are currently 1 users browsing this thread. (0 members and 1 guests)

Posting Permissions

  • You may not post new threads
  • You may not post replies
  • You may not post attachments
  • You may not edit your posts
  •  
Back to Top